Всегда рабочее зеркало без VPN и Proxy просто перед .vidak.icu напиши любое слово или цифру, Пример http://v9kl.vidak.icu

MVO

2 сезон

1 сезон

1

1 сезон

iTunes

2 сезон

13

1 сезон

Deluxe

pack

Рекомендуем

Пиратка

30

ВАЖНО

RePack

MK11

RePack

jed

RePack

fifa19

RePack

RDR2

RePack

NEED FOR SPEED™ PAYBACK

Кинопоиск HD

6 сезон

 Острые козырьки 6 сезон

Все сериалы

все сериалы на PB.wtf

RePack

FAR CRY 5

Anonymous, нам критически не хватает 5601 руб. на оплату серверов и переферии за Апрель, помоги нам пожалуйста, вся надежда только на тебя. В благодарность мы отключим тебе всю рекламу на сайте!

×
  
Magnet ссылка

Триггер / Провокатор / Сезоны: 2 / Серии: 1-16 из 16 (Игорь Твердохлебов) [2021, Драма, WEB-DLRip] vidak.icu

Смотреть онлайн Триггер | Скачать    Ребята, помогите собрать деньги на оплату серверов!!!

07-01-2022 04:21 Триггер Скачать торрент  

Триггер | Провокатор
Год выпуска: 2021
Страна: Россия
Студия: ООО ПК «Среда»
Жанр: Драма
Продолжительность: ~ 00:52:00 серия
Субтитры: Русские (полные)

Режиссер: Игорь Твердохлебов

rating

В ролях: Максим Матвеев, Игорь Костолевский, Светлана Иванова, Виктория Маслова, Марк Юсеф, Роман Маякин, Владислав Тирон, Ангелина Стречина, Марианна Шульц, Даниил Воробьёв, Андрей Мерзликин, Макар Запорожский, Сабина Ахмедова, Екатерина Варнава, Светлана Устинова, Дарья Коныжева, Мадлен Джабраилова, Лена Тронина, Сергей Гилёв, Олег Осипов (II), Андрей Назимов, Николай Шрайбер, Яна Сексте, Антон Хабаров, Алексей Розин, Елена Хабарова, Зоя Бербер, Олег Евтеев, Всеволод Болдин, Гарик Айвазов, Хельга Филиппова, Павел Ворожцов, Артём Быстров, Алёна Малахова, Александр Сергеев (II), Дмитрий Овчинников, Эльвира Синельник, Александра Бабаскина, Юлия Бедарева, Каринэ Асланян, Мария Ремер, Алла Малкова, Арина Горбачёва, Александра Бурьянова, Юлия Беляева, Ника Вигель, Маргарита Дьяченкова, Ярослав Доронин, Сергей Лобынцев, Артём Осипов, Евгений Добряков, Екатерина Шевченко, Андрей Дудников, Лиана Гриба, Александр Лавров (II), Фёдор Федосеев, Иван Егоров (II), Сергей Арбатский, Кристина Вайнас, Ксения Дубник, Александр Мякушко, Яна Сивакова, Максим Демченко (II), Максим Дромашко, Рафаэль Ханбеков, Сергей Новосад, Эльвира Цымбал

Описание: Узнав о гибели близкого человека, Артем Стрелецкий решает выйти из клиники, где провел больше года, восстанавливаясь после сокрушительных событий первого сезона. Он хочет докопаться до истины и понять, что произошло на самом деле. И параллельно возвращается к практике — Артем готов помогать всем и каждому: детям домашних тиранов, жертвам насилия, тем, кто потерял родных или чувствует себя ненужным, тем, кто боится иметь детей, и тем, кто своих детей не принимает. Стрелецкий водит людей по их прошлому, показывает откуда растут проблемы и берётся за самые сложные случаи. С легкостью помогая другим, он все сильнее запутывается в собственных чувствах и отношениях с друзьями и врагами. Но теперь в его жизни есть та, рядом с кем он может быть просто собой.

Качество: WEB-DLRip
Формат: AVI

Видео: XviD, 720x400, ~ 1555 Кбит/с, 0.216 bit/pixel, 25 Кадр/с
Аудио: 48.0 kHz, AC3 Dolby Digital, 2/0 (L,R) ch, ~ 192 kbps
скриншот  скриншот  скриншот  скриншот  скриншот  

Общее
Полное имя : D:\Trigger.S02.WEB-DLRip.25Kuzmich\Trigger.s02e01.WEB-DLRip.25Kuzmich.avi
Формат : AVI
Формат/Информация : Audio Video Interleave
Размер файла : 675 Мбайт
Продолжительность : 53 м. 44 с.
Общий поток : 1 757 Кбит/сек
Программа кодирования : VirtualDubMod 1.5.10.3 | www.virtualdub-fr.org || (build 2550/release)
Библиотека кодирования : VirtualDubMod build 2550/release

Видео
Идентификатор : 0
Формат : MPEG-4 Visual
Профиль формата : Advanced [email protected]
Настройки формата : BVOP1
Параметр BVOP формата : 1
Параметр QPel формата : Нет
Параметр GMC формата : Без точки перехода
Параметр матрицы формата : Default (MPEG)
Идентификатор кодека : XVID
Идентификатор кодека/Подсказка : XviD
Продолжительность : 53 м. 44 с.
Битрейт : 1 555 Кбит/сек
Ширина : 720 пикселей
Высота : 400 пикселей
Соотношение сторон : 16:9
Частота кадров : 25,000 кадров/сек
Цветовое пространство : YUV
Субдискретизация насыщенности : 4:2:0
Битовая глубина : 8 бит
Тип развёртки : Прогрессивная
Метод сжатия : С потерями
Бит/(Пиксели*Кадры) : 0.216
Размер потока : 598 Мбайт (89%)
Библиотека кодирования : XviD 73

Аудио
Идентификатор : 1
Формат : AC-3
Формат/Информация : Audio Coding 3
Коммерческое название : Dolby Digital
Идентификатор кодека : 2000
Продолжительность : 53 м. 44 с.
Вид битрейта : Постоянный
Битрейт : 192 Кбит/сек
Каналы : 2 канала
Channel layout : L R
Частота : 48,0 КГц
Частота кадров : 31,250 кадров/сек (1536 SPF)
Метод сжатия : С потерями
Размер потока : 73,8 Мбайт (11%)
Выравнивание : Разделение по промежуткам
Продолжительность промежутка : 40 мс. (1,00 видеокадр)
Время предзагрузки промежутка : 500 мс.
Service kind : Complete Main

Внимание! Раздача ведётся путём добавления новых серий; при каждом добавлении создаётся новый торрент. Чтобы начать докачку новой серии, пользователям необходимо сделать следующее:
(1) остановить скачивание,
(2) удалить старый торрент у себя из клиента (старые серии удалять не надо),
(3) скачать новый торрент и запустить его у себя в клиенте вместо старого, при этом указать клиенту путь в старую папку куда и должно происходить скачивание новых серий.

Ваш клиент при этом должен произвести хеширование (проверку) старой папки (если не производит сам - помогите ему сделать это), и будет докачивать только те серии которых у вас ещё нет. Старые серии при этом не удаляются, а продолжают раздаваться!

Eсли вы уже удалили старые серии, то предотвратить повторную закачку старых серий можно, отжав галочку в соответсвующих местах при запуске нового торрента. По возможности, желательно не удалять старые серии как можно дольше чтобы релизёр не столько продолжал раздавать старые серии, а смог сконцентрироваться на новых.
vidak.icu



28-11-2019 20:33  

Отключить всю рекламу на сайте

    Дорогой пользователь! Огромная просьба, поблагодарите релизера, оцените раздачу и оставьте свои комментарий, если Вы скачали Триггер через торрент бесплатно!
    Комментировать посты могут только пользователи прошедшие не сложную регистрацию
    Показать сообщения:    

    Триггер через торрент
    Скачать бесплатно Триггер
    Триггер скачать торрент
    Триггер смотреть онлайн
    Cкачать фильм Триггер бесплатно
    Триггер скачать торрент в хорошем качестве
    Триггер смотреть онлайн бесплатно в хорошем качестве


    Вы не можете начинать темы
    Вы не можете отвечать на сообщения
    Вы не можете редактировать свои сообщения
    Вы не можете удалять свои сообщения
    Вы не можете голосовать в опросах
    Вы не можете прикреплять файлы к сообщениям
    Вы можете скачивать файлы