Всегда рабочее зеркало без VPN и Proxy просто перед .vidak.icu напиши любое слово или цифру, Пример http://581b.vidak.icu

MVO

2 сезон

1 сезон

1

1 сезон

iTunes

2 сезон

13

1 сезон

Deluxe

pack

Рекомендуем

Пиратка

30

ВАЖНО

RePack

MK11

RePack

jed

RePack

fifa19

RePack

RDR2

RePack

NEED FOR SPEED™ PAYBACK

Кинопоиск HD

6 сезон

 Острые козырьки 6 сезон

Все сериалы

все сериалы на PB.wtf

RePack

FAR CRY 5

Anonymous, нам критически не хватает 5601 руб. на оплату серверов и переферии за Апрель, помоги нам пожалуйста, вся надежда только на тебя. В благодарность мы отключим тебе всю рекламу на сайте!

×
  
Magnet ссылка

Гиперионы / The Hyperions (Джон Макдональд) [2022, боевик, WEB-DLRip-AVC] DVO [Pazl Voice] от ExKinoRay vidak.icu

Смотреть онлайн Гиперионы | Скачать    Ребята, помогите собрать деньги на оплату серверов!!!

14-03-2022 18:45 Гиперионы Скачать торрент  


Гиперионы / The Hyperions
Информация о фильме:
Название: Гиперионы
Оригинальное название: The Hyperions
Год выхода: 2022
Жанр: боевик
Режиссер: Джон Макдональд
В ролях: Кэри Элвес, Пенелопа Митчелл, Илэйн Тан, Альфонсо МакОли, Тэннер Бьюкэнэн, Кели Прайс, Джон МакДональд, Сэл Лопес, Пэрис Бенжамин, Эндрю Патрик Ралстон, Джек Жако Питчон, Энни Корзен, Индиго Кэри, Рэйчел О’Мира, Трой Меткалф

Описание: В 1960 году профессор Рукус Мандулбаум изобрел устройство, способное даровать любому человеку на планете суперсилу. Найдя подходящих кандидатов, он создал необыкновенную семью юных супергероев, которая моментально снискала широкую популярность. Но однажды настало время сменить супергероев новыми юнцами, с чем некоторые из первоначальных супергероев не согласились. Теперь они готовы пойти на все, чтобы вернуть себе силы, даже если ради этого придется ограбить музей и случайно взять несколько заложников.



Страна: США
Студия: American Millimetre, Archstone Entertainment, Justin Bell Productions, ReKon Productions
Продолжительность: 01:30:51
Перевод: Любительский (двухголосый, закадровый) - Pazl Voice



Информация о файле:
Кодек: AVC
Формат: MKV
Качество: WEB-DLRip-AVC
Видео: MPEG-4 AVC, 1024x424, 23.976 fps, 1950 kb/s
Аудио RU: AC3, 6 ch, 48 kHz, 448 kbps
Аудио EN: AC3, 6 ch, 48 kHz, 384 kbps
Субтитры: Английские

x264 info: frame I:1070 Avg QP:15.18 size: 67468
x264 info: frame P:30849 Avg QP:18.09 size: 21016
x264 info: frame B:98783 Avg QP:19.68 size: 6156
General
Unique ID : 75455361412719143974511039533938298770 (0x38C42C8B53371BF2EECA9E04A76ACF92)
Complete name : D:uTorrentРипы wolf1245The Hyperions.2022.DVO.Pazl.x264.WEB-DLRip-AVC.[wolf1245.ExKinoRay].mkv
Format : Matroska
Format version : Version 4
File size : 1.77 GiB
Duration : 1 h 30 min
Overall bit rate : 2 784 kb/s
Movie name : The Hyperions.2022.DVO.Pazl.x264.WEB-DLRip-AVC.[wolf1245.ExKinoRay]
Encoded date : UTC 2022-03-14 18:31:37
Writing application : mkvmerge v66.0.0 ('Josie') 64-bit
Writing library : libebml v1.4.2 + libmatroska v1.6.4
Video
ID : 1
Format : AVC
Format/Info : Advanced Video Codec
Format profile : [email protected]
Format settings : CABAC / 10 Ref Frames
Format settings, CABAC : Yes
Format settings, Reference frames : 10 frames
Codec ID : V_MPEG4/ISO/AVC
Duration : 1 h 30 min
Bit rate : 1 950 kb/s
Width : 1 024 pixels
Height : 424 pixels
Display aspect ratio : 2.40:1
Frame rate mode : Constant
Frame rate : 23.976 (24000/1001) FPS
Color space : YUV
Chroma subsampling : 4:2:0
Bit depth : 8 bits
Scan type : Progressive
Bits/(Pixel*Frame) : 0.187
Stream size : 1.24 GiB (70%)
Title : -=[wolf1245.ExKinoRay]=-
Writing library : x264 core 163 r3060 5db6aa6
Encoding settings : cabac=1 / ref=10 / deblock=1:-3:-2 / analyse=0x3:0x133 / me=umh / subme=10 / psy=1 / psy_rd=1.05:0.15 / mixed_ref=1 / me_range=32 / chroma_me=1 / trellis=2 / 8x8dct=1 / cqm=0 / deadzone=22,11 / fast_pskip=1 / chroma_qp_offset=-3 / threads=10 / lookahead_threads=2 / sliced_threads=0 / nr=0 / decimate=0 / interlaced=0 / bluray_compat=0 / constrained_intra=0 / bframes=10 / b_pyramid=2 / b_adapt=2 / b_bias=0 / direct=3 / weightb=1 / open_gop=0 / weightp=2 / keyint=240 / keyint_min=24 / scenecut=40 / intra_refresh=0 / rc_lookahead=60 / rc=2pass / mbtree=0 / bitrate=1950 / ratetol=1.0 / qcomp=0.60 / qpmin=0 / qpmax=69 / qpstep=4 / cplxblur=20.0 / qblur=0.5 / vbv_maxrate=50000 / vbv_bufsize=62500 / nal_hrd=none / filler=0 / ip_ratio=1.40 / pb_ratio=1.30 / aq=3:0.80
Language : English
Default : Yes
Forced : No
Color range : Limited
Color primaries : BT.709
Transfer characteristics : BT.709
Matrix coefficients : BT.709
Audio #1
ID : 2
Format : AC-3
Format/Info : Audio Coding 3
Commercial name : Dolby Digital
Codec ID : A_AC3
Duration : 1 h 30 min
Bit rate mode : Constant
Bit rate : 448 kb/s
Channel(s) : 6 channels
Channel layout : L R C LFE Ls Rs
Sampling rate : 48.0 kHz
Frame rate : 31.250 FPS (1536 SPF)
Compression mode : Lossy
Stream size : 291 MiB (16%)
Title : DVO | Pazl Voice | RUS
Language : Russian
Service kind : Complete Main
Default : Yes
Forced : No
Audio #2
ID : 3
Format : AC-3
Format/Info : Audio Coding 3
Commercial name : Dolby Digital
Codec ID : A_AC3
Duration : 1 h 30 min
Bit rate mode : Constant
Bit rate : 384 kb/s
Channel(s) : 6 channels
Channel layout : L R C LFE Ls Rs
Sampling rate : 48.0 kHz
Frame rate : 31.250 FPS (1536 SPF)
Compression mode : Lossy
Stream size : 250 MiB (14%)
Title : Original | ENG
Language : English
Service kind : Complete Main
Default : No
Forced : No
Text
ID : 4
Format : UTF-8
Codec ID : S_TEXT/UTF8
Codec ID/Info : UTF-8 Plain Text
Duration : 1 h 29 min
Bit rate : 63 b/s
Count of elements : 1539
Stream size : 41.7 KiB (0%)
Language : English
Default : No
Forced : No
Релиз от:
Автор релиза:
vidak.icu



28-11-2019 20:33  

Отключить всю рекламу на сайте

    Дорогой пользователь! Огромная просьба, поблагодарите релизера, оцените раздачу и оставьте свои комментарий, если Вы скачали Гиперионы через торрент бесплатно!
    Комментировать посты могут только пользователи прошедшие не сложную регистрацию
    Показать сообщения:    

    Гиперионы через торрент
    Скачать бесплатно Гиперионы
    Гиперионы скачать торрент
    Гиперионы смотреть онлайн
    Cкачать фильм Гиперионы бесплатно
    Гиперионы скачать торрент в хорошем качестве
    Гиперионы смотреть онлайн бесплатно в хорошем качестве


    Вы можете начинать темы
    Вы можете отвечать на сообщения
    Вы не можете редактировать свои сообщения
    Вы не можете удалять свои сообщения
    Вы не можете голосовать в опросах
    Вы не можете прикреплять файлы к сообщениям
    Вы можете скачивать файлы