Всегда рабочее зеркало без VPN и Proxy просто перед .vidak.icu напиши любое слово или цифру, Пример http://bja3.vidak.icu

MVO

2 сезон

1 сезон

1

1 сезон

iTunes

2 сезон

13

1 сезон

Deluxe

pack

Рекомендуем

Пиратка

30

ВАЖНО

RePack

MK11

RePack

jed

RePack

fifa19

RePack

RDR2

RePack

NEED FOR SPEED™ PAYBACK

Кинопоиск HD

6 сезон

 Острые козырьки 6 сезон

Все сериалы

все сериалы на PB.wtf

RePack

FAR CRY 5

Anonymous, нам критически не хватает 5601 руб. на оплату серверов и переферии за Апрель, помоги нам пожалуйста, вся надежда только на тебя. В благодарность мы отключим тебе всю рекламу на сайте!

×
  
Magnet ссылка

Мы – монстры 2 / Monster Family 2 (Хольгер Таппе) [2021, Мультфильм, приключения, детский, семейный, BD Remux 1080p] DUB [iTunes] vidak.icu

Смотреть онлайн Мы – монстры 2 | Скачать    Ребята, помогите собрать деньги на оплату серверов!!!

06-04-2022 18:41 Мы – монстры 2 Скачать торрент  

Мы – монстры 2
Monster Family 2

Год выпуска: 2021
Страна: Великобритания, Германия
Студия: Ambient Entertainment GmbH, Rothkirch Cartoon Film, Timeless Films
Жанр: Мультфильм, приключения, детский, семейный
Продолжительность: 01:43:03
Перевод: Дублированный | iTunes
Субтитры: Aнглийские

Режиссер: Хольгер Таппе

rating

В ролях: Дэниэл Бен Зеноу, Джессика Браун-Финдлэй, Эмили Кэри, Ник Фрост, Джейсон Айзекс, Итан Раус, Кэтрин Тейт, Эмили Уотсон

Описание: Баба Яга и Горбун решили сыграть свадьбу! Семья Уишбон точно не пропустит такой праздник, так как теперь они родственники! Но как раз во время церемонии НЕ молодую пару возлюбленных похищает девочка Старр, обладающая сверхчеловеческими способностями! Что ж, Уишбонам придется вновь прибегнуть к помощи магии и снова превратиться в монстров: мама вампир, папа Франкенштейн и их дети — непоседливый оборотень и обаятельная мумия, отправляются в новое приключение. Ведь свадьба должна состояться несмотря ни на что!

Качество: BD Remux 1080p
Формат: MKV

Видео: MPEG-4 AVC, 19.9 Mb/s, 1920x1080, 23.976 fps
Аудио #01: 48 kHz, AC3, 5.1, 384 Kbps | Дублированный | iTunes | RUS |
Аудио #02: 48 kHz, DTS-HD MA, 5.1, 2234 Kbps | Оригинал | ENG |
скриншот  скриншот  скриншот  скриншот  

Complete name : Monster.Family.2.2021.BDREMUX.1080p.ELEKTRI4KA.UNIONGANG.mkv
Format : Matroska
Format version : Version 4
File size : 16.2 GiB
Duration : 1 h 43 min
Overall bit rate mode : Variable
Overall bit rate : 22.5 Mb/s
Movie name : Monster.Family.2.2021.BDREMUX.1080p.ELEKTRI4KA.UNIONGANG.
Encoded date : UTC 2022-04-06 18:06:57
Writing application : mkvmerge v8.3.0 ('Over the Horizon') 32bit
Writing library : libebml v1.3.1 + libmatroska v1.4.2

Video
ID : 1
Format : AVC
Format/Info : Advanced Video Codec
Format profile : [email protected]
Format settings : CABAC / 3 Ref Frames
Format settings, CABAC : Yes
Format settings, Reference frames : 3 frames
Format settings, GOP : M=1, N=12
Codec ID : V_MPEG4/ISO/AVC
Duration : 1 h 43 min
Bit rate mode : Variable
Bit rate : 19.9 Mb/s
Maximum bit rate : 26.0 Mb/s
Width : 1 920 pixels
Height : 1 080 pixels
Display aspect ratio : 16:9
Frame rate mode : Constant
Frame rate : 23.976 (24000/1001) FPS
Color space : YUV
Chroma subsampling : 4:2:0
Bit depth : 8 bits
Scan type : Progressive
Bits/(Pixel*Frame) : 0.400
Stream size : 14.3 GiB (88%)
Default : Yes
Forced : No

Audio #1
ID : 2
Format : AC-3
Format/Info : Audio Coding 3
Commercial name : Dolby Digital
Codec ID : A_AC3
Duration : 1 h 43 min
Bit rate mode : Constant
Bit rate : 384 kb/s
Channel(s) : 6 channels
Channel layout : L R C LFE Ls Rs
Sampling rate : 48.0 kHz
Frame rate : 31.250 FPS (1536 SPF)
Compression mode : Lossy
Stream size : 283 MiB (2%)
Title : DUB (iTunes)
Language : Russian
Service kind : Complete Main
Default : Yes
Forced : Yes

Audio #2
ID : 3
Format : DTS XLL
Format/Info : Digital Theater Systems
Commercial name : DTS-HD Master Audio
Codec ID : A_DTS
Duration : 1 h 43 min
Bit rate mode : Variable
Bit rate : 2 234 kb/s
Channel(s) : 6 channels
Channel layout : C L R Ls Rs LFE
Sampling rate : 48.0 kHz
Frame rate : 93.750 FPS (512 SPF)
Bit depth : 16 bits
Compression mode : Lossless
Stream size : 1.61 GiB (10%)
Title : Original
Language : English
Default : No
Forced : No

Text
ID : 4
Format : PGS
Muxing mode : zlib
Codec ID : S_HDMV/PGS
Codec ID/Info : Picture based subtitle format used on BDs/HD-DVDs
Duration : 1 h 41 min
Bit rate : 17.8 kb/s
Count of elements : 2726
Stream size : 13.0 MiB (0%)
Language : English
Default : No
Forced : No

Menu
00:00:00.000 : :Chapter 1
00:06:58.713 : :Chapter 2
00:13:58.922 : :Chapter 3
00:23:11.047 : :Chapter 4
00:31:01.172 : :Chapter 5
00:38:56.838 : :Chapter 6
00:45:47.672 : :Chapter 7
00:53:28.630 : :Chapter 8
01:02:50.672 : :Chapter 9
01:12:42.172 : :Chapter 10
01:21:28.213 : :Chapter 11
01:30:36.713 : :Chapter 12

vidak.icu



% Раздел Тема Автор DL S | L
3D Мультфильмы [ 12.8 GB ] Мы — монстры 2 в 3Д / Monster Family 2 3D [2021 Мультфильм детский BDRip 1080p] OverUnder / Вертикальная стереопара () serega768 Скачать
2 | 0
Иностранные мультфильмы [ 720 MB ] Мы — монстры 2 / Monster Family 2 [2021 мультфильм детский WEB-DLRip ""] coc900 Скачать
1 | 0
Иностранные мультфильмы [ 1.46 GB ] Мы – монстры 2 / Monster Family 2 [2021 Мультфильм детский BDRip] bober100 Скачать
2 | 0
Зарубежные Мультфильмы (BDRip 1080p, 720p, Blu-ray, BD-Remux) [ 8.15 GB ] Мы – монстры 2 / Monster Family 2 [2021 Мультфильм детский BDRip 1080p] bober100 Скачать
4 | 0

28-11-2019 20:33  

Отключить всю рекламу на сайте

    Дорогой пользователь! Огромная просьба, поблагодарите релизера, оцените раздачу и оставьте свои комментарий, если Вы скачали Мы – монстры 2 через торрент бесплатно!
    Комментировать посты могут только пользователи прошедшие не сложную регистрацию
    Показать сообщения:    

    Мы – монстры 2 через торрент
    Скачать бесплатно Мы – монстры 2
    Мы – монстры 2 скачать торрент
    Мы – монстры 2 смотреть онлайн
    Cкачать фильм Мы – монстры 2 бесплатно
    Мы – монстры 2 скачать торрент в хорошем качестве
    Мы – монстры 2 смотреть онлайн бесплатно в хорошем качестве


    Вы не можете начинать темы
    Вы не можете отвечать на сообщения
    Вы не можете редактировать свои сообщения
    Вы не можете удалять свои сообщения
    Вы не можете голосовать в опросах
    Вы не можете прикреплять файлы к сообщениям
    Вы можете скачивать файлы