Всегда рабочее зеркало без VPN и Proxy просто перед .vidak.icu напиши любое слово или цифру, Пример http://jl8p.vidak.icu

MVO

2 сезон

1 сезон

1

1 сезон

iTunes

2 сезон

13

1 сезон

Распродажа

pack

Рекомендуем

Пиратка

30

ВАЖНО

RePack

MK11

RePack

jed

RePack

fifa19

RePack

RDR2

RePack

NEED FOR SPEED™ PAYBACK

Кинопоиск HD

6 сезон

 Острые козырьки 6 сезон

Все сериалы

все сериалы на PB.wtf

RePack

FAR CRY 5

Anonymous, нам критически не хватает 5601 руб. на оплату серверов и переферии за Апрель, помоги нам пожалуйста, вся надежда только на тебя. В благодарность мы отключим тебе всю рекламу на сайте!

×
  
Magnet ссылка

Анчартед: На картах не значится / Uncharted (Рубен Фляйшер) [2022, Боевик, приключения, BDRip 1080p] DUB [TS] vidak.icu

Смотреть онлайн Анчартед: На картах не значится | Скачать    Ребята, помогите собрать деньги на оплату серверов!!!

24-04-2022 05:43 Анчартед: На картах не значится Скачать торрент  

Анчартед: На картах не значится
Uncharted

Год выпуска: 2022
Страна: США
Выпущено: Columbia Pictures, Atlas Entertainment, Arad Productions
Жанр: Боевик, приключения
Продолжительность: 01:55:50
Перевод: Дублированный | TS (Микс звука экранки с оригиналом)
Субтитры: Русские (форсированные, полные), английские

Режиссер: Рубен Фляйшер

rating

В ролях: Том Холланд (II), Марк Уолберг, Антонио Бандерас, София Тейлор Али, Тати Габриэль, Патриша Миден, Сара Жаклин Петрик

Описание: Нейтан Дрейк не видел старшего брата Сэма 15 лет, с тех пор как тот сбежал из сиротского приюта. Парень работает барменом и промышляет мелким воровством, когда на него выходит Виктор Салливан по прозвищу Салли и предлагает отправиться на поиски давно потерянных сокровищ Магеллана. Узнав, что Салли знаком с Сэмом, Нейтан соглашается на авантюру, надеясь также отыскать и брата.

Качество: BDRip 1080p
Формат: MKV

Видео: MPEG-4 AVC, 1920x804, 17,1 Мбит/с
Аудио: Русский (AC3, 2 ch, 192 Кбит/с)
Аудио: английский (E-AC3, 6 ch, 1024 Кбит/с)
скриншот  скриншот  скриншот  скриншот  скриншот  

General
Unique ID : 245125827999336367174163725685777696704 (0xB8698469190328939CB89FEA22BB07C0)
Complete name : E:VUncharted.2022.BDRip.1080p.mkv
Format : Matroska
Format version : Version 4
File size : 14.8 GiB
Duration : 1 h 55 min
Overall bit rate : 18.3 Mb/s
Movie name : Uncharted.2022.1080p.BluRay.DDP5.1.x264-iFT
Encoded date : UTC 2022-04-25 16:17:10
Writing application : mkvmerge v16.0.0 ('Protest') 64-bit
Writing library : libebml v1.3.5 + libmatroska v1.4.8

Video
ID : 1
Format : AVC
Format/Info : Advanced Video Codec
Format profile : [email protected]
Format settings : CABAC / 5 Ref Frames
Format settings, CABAC : Yes
Format settings, Reference : 5 frames
Codec ID : V_MPEG4/ISO/AVC
Duration : 1 h 55 min
Bit rate : 17.1 Mb/s
Width : 1 920 pixels
Height : 804 pixels
Display aspect ratio : 2.40:1
Frame rate mode : Constant
Frame rate : 23.976 (24000/1001) FPS
Color space : YUV
Chroma subsampling : 4:2:0
Bit depth : 8 bits
Scan type : Progressive
Bits/(Pixel*Frame) : 0.462
Stream size : 13.8 GiB (93%)
Title : iFT
Writing library : x264 core 164 r3094+49M ~ Encoded by Mocunaman in Portugal
Encoding settings : cabac=1 / ref=5 / deblock=1:-3:-3 / analyse=0x3:0x113 / me=umh / subme=11 / psy=1 / fade_compensate=0.00 / psy_rd=1.03:0.00 / mixed_ref=1 / me_range=48 / chroma_me=1 / trellis=2 / 8x8dct=1 / cqm=0 / deadzone=21,11 / fast_pskip=0 / chroma_qp_offset=-2 / threads=25 / lookahead_threads=4 / sliced_threads=0 / nr=0 / decimate=0 / interlaced=0 / bluray_compat=0 / constrained_intra=0 / fgo=0 / bframes=8 / b_pyramid=2 / b_adapt=2 / b_bias=0 / direct=3 / weightb=1 / open_gop=0 / weightp=2 / keyint=250 / keyint_min=23 / scenecut=40 / intra_refresh=0 / rc_lookahead=60 / rc=crf / mbtree=0 / crf=17.0000 / qcomp=0.65 / qpmin=0:0:0 / qpmax=69:69:69 / qpstep=4 / vbv_maxrate=62500 / vbv_bufsize=78125 / crf_max=0.0 / nal_hrd=none / filler=0 / ip_ratio=1.30 / pb_ratio=1.20 / aq=3:0.78 / aq-sensitivity=10.00 / aq-factor=1.00:1.00:1.00 / aq2=0 / aq3=0 / zones=0,2040,crf=15/5046,11742,crf=16/17838,25585,crf=16.5/27409,30289,crf=16.7/30313,45385,crf=16.5/59628,71173,crf=16/71197,76669,crf=15.5/78339,78429,crf=15.5/78585,78790,crf=15.5/79143,79550,crf=15/79791,79851,crf=15/80082,80112,crf=15/80188,94780,crf=16/111292,111557,crf=16/114164,119850,crf=16.5/123210,123687,crf=16/143511,147591,crf=16.5/151311,152415,crf=16.5
Language : English
Default : Yes
Forced : No
Color range : Limited
Color primaries : BT.709
Transfer characteristics : BT.709
Matrix coefficients : BT.709

Audio #1
ID : 2
Format : AC-3
Format/Info : Audio Coding 3
Commercial name : Dolby Digital
Codec ID : A_AC3
Duration : 1 h 55 min
Bit rate mode : Constant
Bit rate : 192 kb/s
Channel(s) : 2 channels
Channel layout : L R
Sampling rate : 48.0 kHz
Frame rate : 31.250 FPS (1536 SPF)
Compression mode : Lossy
Stream size : 159 MiB (1%)
Title : Rus. Dub. Mix. AC3. 2.0. 192 kbps
Language : Russian
Service kind : Complete Main
Default : Yes
Forced : No

Audio #2
ID : 3
Format : E-AC-3
Format/Info : Enhanced AC-3
Commercial name : Dolby Digital Plus
Codec ID : A_EAC3
Duration : 1 h 55 min
Bit rate mode : Constant
Bit rate : 1 024 kb/s
Channel(s) : 6 channels
Channel layout : L R C LFE Ls Rs
Sampling rate : 48.0 kHz
Frame rate : 31.250 FPS (1536 SPF)
Compression mode : Lossy
Stream size : 849 MiB (6%)
Language : English
Service kind : Complete Main
Default : No
Forced : No

Text #1
ID : 4
Format : UTF-8
Codec ID : S_TEXT/UTF8
Codec ID/Info : UTF-8 Plain Text
Duration : 1 h 41 min
Bit rate : 2 b/s
Count of elements : 53
Stream size : 2.11 KiB (0%)
Title : Rus. Forsed
Language : Russian
Default : Yes
Forced : No

Text #2
ID : 5
Format : UTF-8
Codec ID : S_TEXT/UTF8
Codec ID/Info : UTF-8 Plain Text
Duration : 1 h 47 min
Bit rate : 83 b/s
Count of elements : 1342
Stream size : 65.5 KiB (0%)
Title : Rus. Full. MENINSUB
Language : Russian
Default : No
Forced : No

Text #3
ID : 6
Format : UTF-8
Codec ID : S_TEXT/UTF8
Codec ID/Info : UTF-8 Plain Text
Duration : 4 min 20 s
Bit rate : 17 b/s
Count of elements : 23
Stream size : 573 Bytes (0%)
Title : Forced
Language : English
Default : No
Forced : No

Text #4
ID : 7
Format : UTF-8
Codec ID : S_TEXT/UTF8
Codec ID/Info : UTF-8 Plain Text
Duration : 1 h 47 min
Bit rate : 55 b/s
Count of elements : 1330
Stream size : 43.4 KiB (0%)
Title : Full
Language : English
Default : No
Forced : No

Text #5
ID : 8
Format : UTF-8
Codec ID : S_TEXT/UTF8
Codec ID/Info : UTF-8 Plain Text
Duration : 1 h 48 min
Bit rate : 64 b/s
Count of elements : 1602
Stream size : 51.3 KiB (0%)
Title : SDH
Language : English
Default : No
Forced : No

Menu
00:00:00.000 : en:Chapter 01
00:08:16.496 : en:Chapter 02
00:12:23.409 : en:Chapter 03
00:18:56.886 : en:Chapter 04
00:24:30.219 : en:Chapter 05
00:31:35.102 : en:Chapter 06
00:36:14.464 : en:Chapter 07
00:41:26.984 : en:Chapter 08
00:48:05.174 : en:Chapter 09
00:53:18.404 : en:Chapter 10
00:59:13.258 : en:Chapter 11
01:05:53.199 : en:Chapter 12
01:12:02.944 : en:Chapter 13
01:17:33.065 : en:Chapter 14
01:25:00.387 : en:Chapter 15
01:34:41.843 : en:Chapter 16
01:49:38.322 : en:Chapter 17

vidak.icu
!bober100 писал(а):

Релиз без рекламы.



% Раздел Тема Автор DL S | L
Фильмы 2022 [DVDrip, WEB-DLRip, HDrip] (DUB, MVO) [ 1.46 GB ] Анчартед: На картах не значится / Uncharted [2022 BDRip] MVO [Jaskier] bober100 Скачать
18 | 0
Фильмы [HD 720p, 1080p] (Хороший звук DUB, MVO) [ 4.2 GB ] Анчартед: На картах не значится / Uncharted [2022 BDRip 720p] MVO [Jaskier] bober100 Скачать
27 | 0
Фильмы 2022 [DVDrip, WEB-DLRip, HDrip] (DUB, MVO) [ 1.46 GB ] Анчартед: На картах не значится / Uncharted [2022 BDRip] MVO [HDRezka Studio] bober100 Скачать
17 | 0
Фильмы [HD 720p, 1080p] (Хороший звук DUB, MVO) [ 7.74 GB ] Анчартед: На картах не значится / Uncharted [2022 BDRip 1080p] MVO [Jaskier] bober100 Скачать
38 | 0
Фильмы с украинским озвучиванием [ 2.85 GB ] Анчартед: На картах не значится / Uncharted [2022 BDRip-AVC] [Ukr DUB] + [Ukr MVO] killermax2013 Скачать
3 | 0
Фильмы 2022 [DVDrip, WEB-DLRip, HDrip] (DUB, MVO) [ 2.41 GB ] Анчартед: На картах не значится / Uncharted [2021 BDRip-AVC] MVO [Jaskier] от ExKinoRay Lithuania Скачать
15 | 0
Ultra HD (UHD: 2K, 4K, 8K) — видео сверхвысокой чёткости [ 20.73 GB ] Анчартед: На картах не значится / Uncharted [2022 UHD WEB-DL-HEVC 2160p] MVO [Jaskier] bober100 Скачать
29 | 0


Последний раз редактировалось: bober100 (2022-04-25 16:46), всего редактировалось 3 раз(а)

28-11-2019 20:33  

Отключить всю рекламу на сайте

25-04-2022 16:38 Анчартед: На картах не значится Скачать торрент  

Интересно, что они там наснимали... Надо будет глянуть, но потом, с хорошим звуком.vidak.icu



    Дорогой пользователь! Огромная просьба, поблагодарите релизера, оцените раздачу и оставьте свои комментарий, если Вы скачали Анчартед: На картах не значится через торрент бесплатно!
    Комментировать посты могут только пользователи прошедшие не сложную регистрацию
    Показать сообщения:    

    Анчартед: На картах не значится через торрент
    Скачать бесплатно Анчартед: На картах не значится
    Анчартед: На картах не значится скачать торрент
    Анчартед: На картах не значится смотреть онлайн
    Cкачать фильм Анчартед: На картах не значится бесплатно
    Анчартед: На картах не значится скачать торрент в хорошем качестве
    Анчартед: На картах не значится смотреть онлайн бесплатно в хорошем качестве


    Вы не можете начинать темы
    Вы не можете отвечать на сообщения
    Вы не можете редактировать свои сообщения
    Вы не можете удалять свои сообщения
    Вы не можете голосовать в опросах
    Вы не можете прикреплять файлы к сообщениям
    Вы можете скачивать файлы