Всегда рабочее зеркало без VPN и Proxy просто перед .vidak.icu напиши любое слово или цифру, Пример http://xtj4.vidak.icu

MVO

2 сезон

1 сезон

1

1 сезон

iTunes

2 сезон

13

1 сезон

Deluxe

pack

Рекомендуем

Пиратка

30

ВАЖНО

RePack

MK11

RePack

jed

RePack

fifa19

RePack

RDR2

RePack

NEED FOR SPEED™ PAYBACK

Кинопоиск HD

6 сезон

 Острые козырьки 6 сезон

Все сериалы

все сериалы на PB.wtf

RePack

FAR CRY 5

Anonymous, нам критически не хватает 5601 руб. на оплату серверов и переферии за Апрель, помоги нам пожалуйста, вся надежда только на тебя. В благодарность мы отключим тебе всю рекламу на сайте!

×
  
Magnet ссылка

Опасный пациент / The Shift (Алессандро Тонда) [2020 г., Драма, WEB-DLRip, Дубляж "iTunes"] vidak.icu

Смотреть онлайн Опасный пациент | Скачать    Ребята, помогите собрать деньги на оплату серверов!!!

08-05-2022 18:09 Опасный пациент Скачать торрент  

Опасный пациент / The Shift
Год выпуска: 2020
Страна: Италия, Бельгия / Notorious,Tarantula
Жанр: Драма
Продолжительность: 01:23:01
Перевод: Дубляж (iTunes)

Режиссер: Алессандро Тонда

rating

В ролях: Адам Амара, Клотильда Эсме, Адамо Дионизи, Ян Хамменекер, Джамел Барек, Мустафа Бенкеррум,Филипп Бейлс

Описание: Возвращаясь после ночной смены, врачи скорой помощи Изабель и Адамо получают срочный вызов. В одной из школ произошёл теракт, и им нужно немедленно направиться к месту взрыва. Прибыв туда, врачи забирают одного из раненых подростков по имени Эден. По пути в больницу при оказании жертве первой помощи Изабель обнаруживает на нём пояс смертника со взрывчаткой. Держа в руках взрыватель, Эден приказывает заложникам следовать по указанному им маршруту. На карту поставлены не только жизни врачей, оказавшихся в смертельной ловушке, но и жизни жителей города.

Качество: WEB-DLRip
Формат: AVI
Видео кодек: DivX
Аудио кодек: MP3
Видео: 640x344 (1.86:1), 24.000 fps, DivX Codec 4.x ~1069 kbps avg, 0.20 bit/pixel
Аудио: 48 kHz, MPEG Layer 3, 2 ch, ~128.00 kbps avg

Общее
Полное имя : G:\ФИЛЬМЫ\Опасный пациент.2020.D.WEB-DLRip.avi
Формат : AVI
Формат/Информация : Audio Video Interleave
Размер файла : 717 Мбайт
Продолжительность : 1 ч. 23 м.
Общий поток : 1 207 Кбит/сек
Программа кодирования : VirtualDubMod 1.5.10.3 | www.virtualdub-fr.org || (build 2550/release)
Библиотека кодирования : VirtualDubMod build 2550/release

Видео
Идентификатор : 0
Формат : MPEG-4 Visual
Профиль формата : Advanced [email protected]
Настройки формата : BVOP2
Параметр BVOP формата : 2
Параметр QPel формата : Нет
Параметр GMC формата : Без точки перехода
Параметр матрицы формата : Default (MPEG)
Идентификатор кодека : DIVX
Идентификатор кодека/Информация : Project Mayo
Идентификатор кодека/Подсказка : DivX 4
Продолжительность : 1 ч. 23 м.
Битрейт : 1 070 Кбит/сек
Ширина : 640 пикселей
Высота : 344 пикселя
Соотношение сторон : 1,85:1
Частота кадров : 24,000 кадра/сек
Цветовое пространство : YUV
Субдискретизация насыщенности : 4:2:0
Битовая глубина : 8 бит
Тип развёртки : Прогрессивная
Метод сжатия : С потерями
Бит/(Пиксели*Кадры) : 0.202
Размер потока : 635 Мбайт (89%)
Библиотека кодирования : XviD 1.2.1 (UTC 2008-12-04)

Аудио
Идентификатор : 1
Формат : MPEG Audio
Версия формата : Version 1
Профиль формата : Layer 3
Настройки формата : Joint stereo / MS Stereo
Идентификатор кодека : 55
Идентификатор кодека/Подсказка : MP3
Продолжительность : 1 ч. 23 м.
Вид битрейта : Постоянный
Битрейт : 128 Кбит/сек
Каналы : 2 канала
Частота : 48,0 КГц
Частота кадров : 41,667 кадра/сек (1152 SPF)
Метод сжатия : С потерями
Размер потока : 76,0 Мбайт (11%)
Выравнивание : Соединение по промежуткам
Продолжительность промежутка : 42 мс. (1,00 видеокадр)
Время предзагрузки промежутка : 504 мс.
Библиотека кодирования : LAME3.99r
Настройки программы : -m j -V 4 -q 2 -lowpass 17 -b 128

ReportBy : MediaInfoLib - v22.03
CreatedOn : UTC 2022-05-08 17:53:10

vidak.icu



% Раздел Тема Автор DL S | L
Фильмы 2019-2020 [DVDrip, WEB-DLRip, HDrip] (DUB, MVO) [ 747 MB ] Опасный пациент / The Shift [2020 HDRip] bober100 Скачать
3 | 0
Фильмы 2019-2020 [DVDrip, WEB-DLRip, HDrip] (DUB, MVO) [ 1.45 GB ] Опасный пациент / The Shift [2020 HDRip-AVC] bober100 Скачать
4 | 0
Фильмы 2019-2020 [DVDrip, WEB-DLRip, HDrip] (DUB, MVO) [ 1.37 GB ] Опасный пациент / The Shift [2020 BDRip] bober100 Скачать
2 | 0
Фильмы [HD 720p, 1080p] (Хороший звук DUB, MVO) [ 6.4 GB ] Опасный пациент / The Shift [2020 BDRip 1080p] bober100 Скачать
2 | 0
Фильмы [HD 720p, 1080p] (Хороший звук DUB, MVO) [ 3.79 GB ] Опасный пациент / The Shift [2020 BDRip 720p] bober100 Скачать
1 | 0

28-11-2019 20:33  

Отключить всю рекламу на сайте

10-05-2022 12:03 Опасный пациент Скачать торрент  

Топик был перенесен из форума Фильмы 2019-2020 [DVDrip, WEB-DLRip, HDrip] (DUB, MVO) в форум Для поглощённых раздач

Причина переноса: Опасный пациент / The Shift
bober100vidak.icu



    Дорогой пользователь! Огромная просьба, поблагодарите релизера, оцените раздачу и оставьте свои комментарий, если Вы скачали Опасный пациент через торрент бесплатно!
    Комментировать посты могут только пользователи прошедшие не сложную регистрацию
    Показать сообщения:    

    Опасный пациент через торрент
    Скачать бесплатно Опасный пациент
    Опасный пациент скачать торрент
    Опасный пациент смотреть онлайн
    Cкачать фильм Опасный пациент бесплатно
    Опасный пациент скачать торрент в хорошем качестве
    Опасный пациент смотреть онлайн бесплатно в хорошем качестве


    Вы не можете начинать темы
    Вы не можете отвечать на сообщения
    Вы не можете редактировать свои сообщения
    Вы не можете удалять свои сообщения
    Вы не можете голосовать в опросах
    Вы не можете прикреплять файлы к сообщениям
    Вы можете скачивать файлы