Всегда рабочее зеркало без VPN и Proxy просто перед .vidak.icu напиши любое слово или цифру, Пример http://h9m4.vidak.icu

MVO

2 сезон

1 сезон

1

1 сезон

iTunes

2 сезон

13

1 сезон

Распродажа

pack

Рекомендуем

Пиратка

30

ВАЖНО

RePack

MK11

RePack

jed

RePack

fifa19

RePack

RDR2

RePack

NEED FOR SPEED™ PAYBACK

Кинопоиск HD

6 сезон

 Острые козырьки 6 сезон

Все сериалы

все сериалы на PB.wtf

RePack

FAR CRY 5

Anonymous, нам критически не хватает 5601 руб. на оплату серверов и переферии за Апрель, помоги нам пожалуйста, вся надежда только на тебя. В благодарность мы отключим тебе всю рекламу на сайте!

×
  
Magnet ссылка

Золушка и заколдованный принц / Cinderella and the Secret Prince (Линн Саузерленд) [2018 г., Мультфильм, фэнтези, приключения, семейный, WEB-DLRip 720p / 60 FPS, Профессиональный (многоголосый)] от R.G. HD-Films vidak.icu

Смотреть онлайн Золушка и заколдованный принц | Скачать    Ребята, помогите собрать деньги на оплату серверов!!!

09-05-2022 08:25 Золушка и заколдованный принц Скачать торрент  

Золушка и заколдованный принц / Cinderella and the Secret Prince
Год выпуска: 2018
Страна: США
Жанр: Мультфильм, фэнтези, приключения, семейный
Продолжительность: 01:27:05
Перевод: Профессиональный (многоголосый, закадровый) | HDRezka Studio
Субтитры: English

Режиссер: Линн Саузерленд

Бюджет: $20 000 000
Премьера в мире: 16 августа 2018

rating

В ролях: Кассандра Моррис, Крис Ниоси, Роберт Мартин Клейн, Тони Аццолино, Кирстен Дэй, Уэнди Ли, Стивен Мендел, Терренс Стоун, Стефани Сандиц, Полетт Виктор-Лифтон

Описание: С помощью феи Кристал, Золушке и трем мышкам удается выбраться из чердака, где они живут и попасть в Королевский дворец на бал. Там им открывается страшная тайна: настоящий принц был превращен в мышь злой ведьмой, а тот, кто возглавляет бал - самозванец. Золушка и ее верные друзья отправляются в опасное приключение, чтобы вернуть настоящему принцу самого себя и помочь победить силы зла.


Качество: WEB-DLRip 720p / 60 FPS
Формат: MKV
Видео кодек: H.264
Аудио кодек: AC3
Видео: x264, 1280 x 544 ( 2,35:1 ), 4281 kbps, 60,000 fps, ( 0.102 bpp)
Аудио#1: Русский, AC-3, 48.0 KHz, 6 ch, 384 Kbps MVO (HDRezka Studio)
Релиз от: Автор рипа: slaventi-69
x264 [info]: profile High, level 4.1
x264 [info]: frame I:1600 Avg QP:14.65 size: 88382
x264 [info]: frame P:70773 Avg QP:15.81 size: 20859
x264 [info]: frame B:241173 Avg QP:18.96 size: 4888
x264 [info]: consecutive B-frames: 1.9% 1.8% 4.6% 25.2% 40.7% 25.8%


Общее
Уникальный идентификатор : 160293165143652887019781660937802752903 (0x78975735B2066B5EF667300FF1542387)
Полное имя : G:\60 FPS\Cinderella.and.the.Secret.Prince.(2018).WEB-DLRip.720p.(60 Fps).mkv
Формат : Matroska
Версия формата : Version 4
Размер файла : 2,84 Гбайт
Продолжительность : 1 ч. 27 м.
Общий поток : 4669 Кбит/сек
Название фильма : Золушка и заколдованный принц / Cinderella and the Secret Prince (2018) WEB-DLRip 720p (60 Fps)
Дата кодирования : UTC 2022-05-09 08:02:06
Программа кодирования : mkvmerge v25.0.0 ('Prog Noir') 64-bit
Библиотека кодирования : libebml v1.3.6 + libmatroska v1.4.9

Видео
Идентификатор : 1
Формат : AVC
Формат/Информация : Advanced Video Codec
Профиль формата : [email protected]
Настройки формата : CABAC / 9 Ref Frames
Параметр CABAC формата : Да
Параметр RefFrames формата : 9 кадров
Идентификатор кодека : V_MPEG4/ISO/AVC
Продолжительность : 1 ч. 27 м.
Битрейт : 4281 Кбит/сек
Ширина : 1280 пикселей
Высота : 544 пикселя
Соотношение сторон : 2,35:1
Режим частоты кадров : Постоянный
Частота кадров : 60,000 кадров/сек
Цветовое пространство : YUV
Субдискретизация насыщенности : 4:2:0
Битовая глубина : 8 бит
Тип развёртки : Прогрессивная
Бит/(Пиксели*Кадры) : 0.102
Размер потока : 2,60 Гбайт (92%)
Заголовок : slaventi-69 ( R.G. HD-Films | 60 fps )
Библиотека кодирования : x264 core 130 r2273 b3065e6
Настройки программы : cabac=1 / ref=9 / deblock=1:-3:-3 / analyse=0x3:0x133 / me=umh / subme=9 / psy=1 / psy_rd=1.00:0.00 / mixed_ref=1 / me_range=32 / chroma_me=1 / trellis=2 / 8x8dct=1 / cqm=0 / deadzone=21,11 / fast_pskip=0 / chroma_qp_offset=-2 / threads=6 / lookahead_threads=2 / sliced_threads=0 / nr=0 / decimate=1 / interlaced=0 / bluray_compat=0 / constrained_intra=0 / bframes=5 / b_pyramid=2 / b_adapt=2 / b_bias=0 / direct=1 / weightb=1 / open_gop=0 / weightp=2 / keyint=600 / keyint_min=23 / scenecut=40 / intra_refresh=0 / rc=crf / mbtree=0 / crf=15.7 / qcomp=0.60 / qpmin=0 / qpmax=69 / qpstep=4 / ip_ratio=1.40 / pb_ratio=1.30 / aq=1:1.00
Язык : English
Default : Да
Forced : Нет

Аудио
Идентификатор : 2
Формат : AC-3
Формат/Информация : Audio Coding 3
Коммерческое название : Dolby Digital
Идентификатор кодека : A_AC3
Продолжительность : 1 ч. 27 м.
Вид битрейта : Постоянный
Битрейт : 384 Кбит/сек
Каналы : 6 каналов
Channel layout : L R C LFE Ls Rs
Частота : 48,0 КГц
Частота кадров : 31,250 кадров/сек (1536 SPF)
Битовая глубина : 16 бит
Метод сжатия : С потерями
Размер потока : 239 Мбайт (8%)
Заголовок : MVO (HDRezka Studio)
Язык : Russian
ServiceKind/String : Complete Main
Default : Да
Forced : Нет

Текст
Идентификатор : 3
Формат : UTF-8
Идентификатор кодека : S_TEXT/UTF8
Идентификатор кодека/Информация : UTF-8 Plain Text
Продолжительность : 1 ч. 17 м.
Битрейт : 39 бит/сек
ElementCount : 1029
Размер потока : 22,6 Кбайт (0%)
Заголовок : Full
Язык : English
Default : Нет
Forced : Нет

Меню
00:00:00.000 : en:Chapter 01
00:10:27.708 : en:Chapter 02
00:21:01.666 : en:Chapter 03
00:30:37.291 : en:Chapter 04
00:36:48.916 : en:Chapter 05
00:42:31.541 : en:Chapter 06
00:55:31.832 : en:Chapter 07
01:03:28.707 : en:Chapter 08
01:09:25.457 : en:Chapter 09
01:17:44.582 : en:Chapter 10

Просьба к переливающим на другие сайты, в оформлении указывайте пожалуйста авторство группы R.G. HD-Films vidak.icu



28-11-2019 20:33  

Отключить всю рекламу на сайте

    Дорогой пользователь! Огромная просьба, поблагодарите релизера, оцените раздачу и оставьте свои комментарий, если Вы скачали Золушка и заколдованный принц через торрент бесплатно!
    Комментировать посты могут только пользователи прошедшие не сложную регистрацию
    Показать сообщения:    

    Золушка и заколдованный принц через торрент
    Скачать бесплатно Золушка и заколдованный принц
    Золушка и заколдованный принц скачать торрент
    Золушка и заколдованный принц смотреть онлайн
    Cкачать фильм Золушка и заколдованный принц бесплатно
    Золушка и заколдованный принц скачать торрент в хорошем качестве
    Золушка и заколдованный принц смотреть онлайн бесплатно в хорошем качестве


    Вы не можете начинать темы
    Вы не можете отвечать на сообщения
    Вы не можете редактировать свои сообщения
    Вы не можете удалять свои сообщения
    Вы не можете голосовать в опросах
    Вы не можете прикреплять файлы к сообщениям
    Вы можете скачивать файлы