Всегда рабочее зеркало без VPN и Proxy просто перед .vidak.icu напиши любое слово или цифру, Пример http://jdoc.vidak.icu

MVO

2 сезон

1 сезон

1

1 сезон

iTunes

2 сезон

13

1 сезон

Распродажа

pack

Рекомендуем

Пиратка

30

ВАЖНО

RePack

MK11

RePack

jed

RePack

fifa19

RePack

RDR2

RePack

NEED FOR SPEED™ PAYBACK

Кинопоиск HD

6 сезон

 Острые козырьки 6 сезон

Все сериалы

все сериалы на PB.wtf

RePack

FAR CRY 5

Anonymous, нам критически не хватает 5601 руб. на оплату серверов и переферии за Апрель, помоги нам пожалуйста, вся надежда только на тебя. В благодарность мы отключим тебе всю рекламу на сайте!

×
  
Magnet ссылка

Опасный пациент / The Shift (Алессандро Тонда) [2020, Драма, HDRip-AVC] DUB [iTunes] vidak.icu

Смотреть онлайн Опасный пациент | Скачать    Ребята, помогите собрать деньги на оплату серверов!!!

10-05-2022 06:27 Опасный пациент Скачать торрент  

Опасный пациент
The Shift

Год выпуска: 2020
Страна: Италия, Бельгия
Жанр: Драма
Продолжительность: 01:23:04
Перевод: Дублированный | iTunes
Субтитры: отсутствуют

Режиссер: Алессандро Тонда

rating

В ролях: Клотильда Эм, Адамо Дионизи, Ян Хамменекер, Джамел Барек, Мустафа Бенкеррум, Адам Амара, Филипп Бейлс

Описание: Возвращаясь после ночной смены, врачи скорой помощи Изабель и Адамо получают срочный вызов. В одной из школ произошёл теракт, и им нужно немедленно направиться к месту взрыва. Прибыв туда, врачи забирают одного из раненых подростков по имени Эден.
По пути в больницу при оказании жертве первой помощи Изабель обнаруживает на нём пояс смертника со взрывчаткой. Держа в руках взрыватель, Эден приказывает заложникам следовать по указанному им маршруту. На карту поставлены не только жизни врачей, оказавшихся в смертельной ловушке, но и жизни жителей города.

Качество: HDRip-AVC
Формат: MKV

Видео: MPEG-4 AVC, 1024x576 at 24.000 fps, [email protected], ~2120 kbps
Аудио: 48 kHz, AC3 Dolby Digital, 3/2 (L, C, R, l, r) + LFE ch, ~384 Kbps

[x264] frame I:640 Avg QP:18.07 size: 46150
[x264] frame P:32036 Avg QP:19.82 size: 22569
[x264] frame B:86933 Avg QP:21.55 size: 6301

General
Unique ID : 144018473732798597978983671775400138317 (0x6C58F2F8EB20786D2E71DD71C175964D)
Complete name : I:The.Shift.2020.x264.mkv
Format : Matroska
Format version : Version 4
File size : 1.45 GiB
Duration : 1 h 23 min
Overall bit rate : 2 501 kb/s
Encoded date : UTC 2022-05-09 19:47:24
Writing application : mkvmerge v63.0.0 ('Everything') 64-bit
Writing library : libebml v1.4.2 + libmatroska v1.6.4
Cover : Yes
Attachments : cover.png / cover 2.jpg

Video
ID : 1
Format : AVC
Format/Info : Advanced Video Codec
Format profile : [email protected]
Format settings : CABAC / 12 Ref Frames
Format settings, CABAC : Yes
Format settings, Reference : 12 frames
Codec ID : V_MPEG4/ISO/AVC
Duration : 1 h 23 min
Bit rate : 2 120 kb/s
Width : 1 024 pixels
Height : 576 pixels
Display aspect ratio : 16:9
Frame rate mode : Constant
Frame rate : 24.000 FPS
Color space : YUV
Chroma subsampling : 4:2:0
Bit depth : 8 bits
Scan type : Progressive
Bits/(Pixel*Frame) : 0.150
Stream size : 1.23 GiB (85%)
Title : -=DoMiNo=-
Writing library : x264 core 163
Encoding settings : cabac=1 / ref=12 / deblock=1:-2:-2 / analyse=0x3:0x133 / me=umh / subme=10 / psy=1 / psy_rd=1.05:0.05 / mixed_ref=1 / me_range=32 / chroma_me=1 / trellis=2 / 8x8dct=1 / cqm=0 / deadzone=21,11 / fast_pskip=0 / chroma_qp_offset=-3 / threads=17 / lookahead_threads=4 / sliced_threads=0 / nr=0 / decimate=0 / interlaced=0 / bluray_compat=0 / constrained_intra=0 / bframes=10 / b_pyramid=2 / b_adapt=2 / b_bias=0 / direct=3 / weightb=1 / open_gop=0 / weightp=2 / keyint=240 / keyint_min=24 / scenecut=40 / intra_refresh=0 / rc_lookahead=100 / rc=2pass / mbtree=0 / bitrate=2120 / ratetol=1.0 / qcomp=0.70 / qpmin=0 / qpmax=69 / qpstep=4 / cplxblur=20.0 / qblur=0.5 / vbv_maxrate=50000 / vbv_bufsize=62500 / nal_hrd=none / filler=0 / ip_ratio=1.40 / pb_ratio=1.30 / aq=3:0.80
Language : English
Default : Yes
Forced : No

Audio
ID : 2
Format : AC-3
Format/Info : Audio Coding 3
Commercial name : Dolby Digital
Codec ID : A_AC3
Duration : 1 h 23 min
Bit rate mode : Constant
Bit rate : 384 kb/s
Channel(s) : 6 channels
Channel layout : L R C LFE Ls Rs
Sampling rate : 48.0 kHz
Frame rate : 31.250 FPS (1536 SPF)
Bit depth : 16 bits
Compression mode : Lossy
Stream size : 228 MiB (15%)
Title : DUB
Language : Russian
Service kind : Complete Main
Default : Yes
Forced : Yes

Menu
00:00:00.000 : :Chapter 01
00:11:19.000 : :Chapter 02
00:21:57.000 : :Chapter 03
00:32:30.000 : :Chapter 04
00:41:05.000 : :Chapter 05
00:51:50.000 : :Chapter 06
01:01:47.000 : :Chapter 07
01:11:31.000 : :Chapter 08
01:19:27.000 : :Chapter 09

vidak.icu



28-11-2019 20:33  

Отключить всю рекламу на сайте

    Дорогой пользователь! Огромная просьба, поблагодарите релизера, оцените раздачу и оставьте свои комментарий, если Вы скачали Опасный пациент через торрент бесплатно!
    Комментировать посты могут только пользователи прошедшие не сложную регистрацию
    Показать сообщения:    

    Опасный пациент через торрент
    Скачать бесплатно Опасный пациент
    Опасный пациент скачать торрент
    Опасный пациент смотреть онлайн
    Cкачать фильм Опасный пациент бесплатно
    Опасный пациент скачать торрент в хорошем качестве
    Опасный пациент смотреть онлайн бесплатно в хорошем качестве


    Вы не можете начинать темы
    Вы не можете отвечать на сообщения
    Вы не можете редактировать свои сообщения
    Вы не можете удалять свои сообщения
    Вы не можете голосовать в опросах
    Вы не можете прикреплять файлы к сообщениям
    Вы можете скачивать файлы