Всегда рабочее зеркало без VPN и Proxy просто перед .vidak.icu напиши любое слово или цифру, Пример http://f4gl.vidak.icu

MVO

2 сезон

1 сезон

1

1 сезон

iTunes

2 сезон

13

1 сезон

Распродажа

pack

Рекомендуем

Пиратка

30

ВАЖНО

RePack

MK11

RePack

jed

RePack

fifa19

RePack

RDR2

RePack

NEED FOR SPEED™ PAYBACK

Кинопоиск HD

6 сезон

 Острые козырьки 6 сезон

Все сериалы

все сериалы на PB.wtf

RePack

FAR CRY 5

Anonymous, нам критически не хватает 5601 руб. на оплату серверов и переферии за Апрель, помоги нам пожалуйста, вся надежда только на тебя. В благодарность мы отключим тебе всю рекламу на сайте!

×
  
Magnet ссылка

Мы владеем этим городом / We Own This City / Сезон: 1 / Серии: 1-4 из 6 (Рейнальдо Маркус Грин) [2022, Драма, криминал, WEB-DLRip-AVC] MVO [HDrezka Studio] vidak.icu

Смотреть онлайн Мы владеем этим городом | Скачать    Ребята, помогите собрать деньги на оплату серверов!!!

12-05-2022 08:08 Мы владеем этим городом Скачать торрент  

Мы владеем этим городом | We Own This City
«***»
Год выпуска: 2022
Страна: США
Студия: Crime Story Media, Home Box Office (HBO)
Премьера (мир): 25 апреля 2022
Жанр: Драма, криминал
Продолжительность: ~ 00:58:00 серия
Перевод: Профессиональный (многоголосый) | HDrezka Studio
Субтитры: Русские (Forced)

Режиссер: Рейнальдо Маркус Грин

rating

В ролях: Дэвид Коренсвет (David Corenswet), МакКинли Белчер III (McKinley Belcher III), Дагмара Доминчик (Dagmara Dominczyk), Дон Харви (Don Harvey), Гэбриэлль Картерис (Gabrielle Carteris), Трей Чейни (Tray Chaney), Иэн Дафф (Ian Duff), Делани Уильямс (Delaney Williams), Джон Бернтал (Jon Bernthal), Вунми Моссаку (Wunmi Mosaku), Джэми Гектор (Jamie Hector), Даррел Бритт-Гибсон (Darrell Britt-Gibson)

Описание: События разворачиваются в Балтиморе в 2015 году. По всему городу вспыхивают беспорядки, жители требуют справедливости в отношении Фредди Грея, 25-летнего чернокожего мужчины, который умер при подозрительных обстоятельствах, находясь под стражей в полиции. Наркотики и насильственные преступления растут, а количество убийств в городе достигло самого высокого уровня за более чем два десятилетия: 342 убийства за один год в городе с населением всего 600 000 человек. Столкнувшись с давлением со стороны мэрии, а также с федеральным расследованием в отношении департамента в связи со смертью Грея, руководство полиции Балтимора обращается к сержанту Уэйну Дженкинсу и его элитному подразделению в штатском, целевой группе по розыску оружия, чтобы помочь убрать с улиц оружие и наркотики. Однако за этими новыми усилиями исправить ситуацию в полицейском управлении разворачивается преступный заговор невиданных масштабов. Дженкинсу было поручено решить проблему наркотиков и оружия в городе, но вместо этого он решил использовать ее в своих целях.

Качество: WEB-DLRip-AVC
Формат: MKV

Видео: MPEG-4 AVC, 1024x512 at 23.976 fps, [email protected], ~1994 kbps
Аудио: 48 kHz, AC3 Dolby Digital, 3/2 (L, C, R, l, r) + LFE ch, ~384 Kbps
скриншот  скриншот  скриншот  скриншот  скриншот  скриншот  

x264 [info]: frame I:649 Avg QP:17.13 size: 70731
x264 [info]: frame P:17101 Avg QP:18.51 size: 21872
x264 [info]: frame B:66134 Avg QP:19.94 size: 6836

General
Unique ID : 202040650281783582229128955758170195963 (0x97FF9D245D19C97C6A7601C1A0ADC7FB)
Complete name : E:We.Own.This.City.S01.2022.HDR.WEB-DLRip.x264We.Own.This.City.S01E01.mkv
Format : Matroska
Format version : Version 4
File size : 993 MiB
Duration : 58 min 18 s
Overall bit rate : 2 380 kb/s
Encoded date : UTC 2022-05-02 10:24:46
Writing application : mkvmerge v63.0.0 ('Everything') 64-bit
Writing library : libebml v1.4.2 + libmatroska v1.6.4
Cover : Yes
Attachments : cover.png / cover 2.jpg

Video
ID : 1
Format : AVC
Format/Info : Advanced Video Codec
Format profile : [email protected]
Format settings : CABAC / 10 Ref Frames
Format settings, CABAC : Yes
Format settings, Reference : 10 frames
Codec ID : V_MPEG4/ISO/AVC
Duration : 58 min 18 s
Bit rate : 1 994 kb/s
Width : 1 024 pixels
Height : 512 pixels
Display aspect ratio : 2.000
Frame rate mode : Constant
Frame rate : 23.976 (24000/1001) FPS
Color space : YUV
Chroma subsampling : 4:2:0
Bit depth : 8 bits
Scan type : Progressive
Bits/(Pixel*Frame) : 0.159
Stream size : 832 MiB (84%)
Title : -=DoMiNo=-
Writing library : x264 core 164 r3094 bfc87b7
Encoding settings : cabac=1 / ref=10 / deblock=1:-2:-2 / analyse=0x3:0x133 / me=umh / subme=10 / psy=1 / psy_rd=1.07:0.20 / mixed_ref=1 / me_range=32 / chroma_me=1 / trellis=2 / 8x8dct=1 / cqm=0 / deadzone=21,11 / fast_pskip=0 / chroma_qp_offset=-3 / threads=16 / lookahead_threads=4 / sliced_threads=0 / nr=0 / decimate=1 / interlaced=0 / bluray_compat=0 / constrained_intra=0 / bframes=10 / b_pyramid=2 / b_adapt=2 / b_bias=0 / direct=1 / weightb=1 / open_gop=0 / weightp=2 / keyint=250 / keyint_min=23 / scenecut=40 / intra_refresh=0 / rc_lookahead=60 / rc=crf / mbtree=0 / crf=19.0 / qcomp=0.65 / qpmin=0 / qpmax=69 / qpstep=4 / vbv_maxrate=50000 / vbv_bufsize=62500 / crf_max=0.0 / nal_hrd=none / filler=0 / ip_ratio=1.35 / pb_ratio=1.25 / aq=2:1.00
Language : English
Default : Yes
Forced : No
Color range : Limited
Color primaries : BT.709
Transfer characteristics : BT.709
Matrix coefficients : BT.709

Audio
ID : 2
Format : AC-3
Format/Info : Audio Coding 3
Commercial name : Dolby Digital
Codec ID : A_AC3
Duration : 58 min 18 s
Bit rate mode : Constant
Bit rate : 384 kb/s
Channel(s) : 6 channels
Channel layout : L R C LFE Ls Rs
Sampling rate : 48.0 kHz
Frame rate : 31.250 FPS (1536 SPF)
Compression mode : Lossy
Stream size : 160 MiB (16%)
Title : HDrezka Studio (Без мата)
Language : Russian
Service kind : Complete Main
Default : Yes
Forced : No

Text
ID : 3
Format : UTF-8
Codec ID : S_TEXT/UTF8
Codec ID/Info : UTF-8 Plain Text
Duration : 50 min 36 s
Bit rate : 3 b/s
Count of elements : 31
Stream size : 1.33 KiB (0%)
Title : Forc
Language : Russian
Default : Yes
Forced : No

Menu
00:00:00.000 : en:Chapter 1
00:06:08.034 : en:Intro
00:07:37.082 : en:Chapter 2
00:57:00.000 : en:Credits

Внимание! Раздача ведётся путём добавления новых серий; при каждом добавлении создаётся новый торрент.
Чтобы начать докачку новой серии, пользователям необходимо сделать следующее:
1. Остановить скачивание;
2. Удалить старый торрент у себя из клиента (старые серии удалять не надо);
3. Скачать новый торрент и запустить его у себя в клиенте вместо старого, при этом указать клиенту путь в старую папку куда и должно происходить скачивание новых серий. Ваш клиент при этом должен произвести хеширование (проверку) старой папки и будет докачивать только те серии, которых у вас ещё нет. Старые серии при этом не удаляются, а продолжают раздаваться! Eсли вы уже удалили старые серии, то предотвратить повторную закачку старых серий можно, отжав галочку в соответствующих местах при запуске нового торрента.

vidak.icu



28-11-2019 20:33  

Отключить всю рекламу на сайте

    Дорогой пользователь! Огромная просьба, поблагодарите релизера, оцените раздачу и оставьте свои комментарий, если Вы скачали Мы владеем этим городом через торрент бесплатно!
    Комментировать посты могут только пользователи прошедшие не сложную регистрацию
    Показать сообщения:    

    Мы владеем этим городом через торрент
    Скачать бесплатно Мы владеем этим городом
    Мы владеем этим городом скачать торрент
    Мы владеем этим городом смотреть онлайн
    Cкачать фильм Мы владеем этим городом бесплатно
    Мы владеем этим городом скачать торрент в хорошем качестве
    Мы владеем этим городом смотреть онлайн бесплатно в хорошем качестве


    Вы не можете начинать темы
    Вы не можете отвечать на сообщения
    Вы не можете редактировать свои сообщения
    Вы не можете удалять свои сообщения
    Вы не можете голосовать в опросах
    Вы не можете прикреплять файлы к сообщениям
    Вы можете скачивать файлы