Всегда рабочее зеркало без VPN и Proxy просто перед .vidak.icu напиши любое слово или цифру, Пример http://7j49.vidak.icu

MVO

2 сезон

1 сезон

1

1 сезон

iTunes

2 сезон

13

1 сезон

Распродажа

pack

Рекомендуем

Пиратка

30

ВАЖНО

RePack

MK11

RePack

jed

RePack

fifa19

RePack

RDR2

RePack

NEED FOR SPEED™ PAYBACK

Кинопоиск HD

6 сезон

 Острые козырьки 6 сезон

Все сериалы

все сериалы на PB.wtf

RePack

FAR CRY 5

Anonymous, нам критически не хватает 5601 руб. на оплату серверов и переферии за Апрель, помоги нам пожалуйста, вся надежда только на тебя. В благодарность мы отключим тебе всю рекламу на сайте!

×
  
Magnet ссылка

Варяг / The Northman (Роберт Эггерс) [2022, Фэнтези, боевик, триллер, драма, приключения, история, WEB-DL 1080p] 3xMVO (rus, ukr) [HDRezka Studio, Jaskier, NewComers] vidak.icu

Смотреть онлайн Варяг | Скачать    Ребята, помогите собрать деньги на оплату серверов!!!

14-05-2022 10:29 Варяг Скачать торрент  

Варяг
The Northman

Год выпуска: 2022
Страна: США
Выпущено: New Regency Productions, Focus Features, Perfect World Pictures
Жанр: Фэнтези, боевик, триллер, драма, приключения, история
Продолжительность: 02:16:57
Перевод:
#1: Профессиональный (многоголосый) | HDRezka Studio
#2: Профессиональный (многоголосый) | Jaskier
#3: Профессиональный (многоголосый) | NewComers
Субтитры: Русские (forced, full), украинские (Forced) , английские

Режиссер: Роберт Эггерс

rating

В ролях: Александр Скарсгард, Николь Кидман, Клас Банг, Итэн Хоук, Аня Тейлор-Джой, Густав Линд, Эллиотт Роуз, Уиллем Дефо, Фил Мартин, Эльдар Скар

Описание: Фильм основан на саге о Амлете из древнескандинавской хроники, записанной Саксоном Грамматиком. Сюжет рассказывает о том, как викинг Фьолнир убивает своего брата, конунга Хорвендила, и берёт в жёны его супругу Гудрун. Амлет, сын Хорвендила, скрывается и клянётся отомстить убийце отца. Когда Амлет становится старше, он объединяется со славянской ведьмой Ольгой, похищенной викингами, и стремится вернуться домой, чтобы убить Фьолнира.

Качество: WEB-DL 1080p
Формат: MKV

Видео: MPEG-4 AVC, 1920x960, 8607 Kbit/s, 23.976 fps
Аудио #01: 48 kHz, AC3, 5.1, 448 Kbps | Профессиональный многоголосый | HDRezka Studio | RUS |
Аудио #02: 48 kHz, AC3, 5.1, 448 Kbps | Профессиональный многоголосый | Jaskier | RUS |
Аудио #03: 48 kHz, AC3, 5.1, 384 Kbps | Профессиональный многоголосый | NewComers | RUS |
Аудио #04: 48 kHz, AC3, 5.1, 384 Kbps | Профессиональный многоголосый | HDRezka Studio | UKR |
Аудио #05: 48 kHz, E-AC3+Atmos, 5.1, 768 Kbps | Оригинал | ENG |
скриншот  скриншот  скриншот  скриншот  скриншот  скриншот  

General
Unique ID : 131210331674154673431383332432297070897 (0x62B630D04D193126AEAEE5086FF01131)
Complete name : D:Video12The.Northman.2022.AMZN.WEB-DL.1080p.seleZen.mkv
Format : Matroska
Format version : Version 4
File size : 10.6 GiB
Duration : 2 h 17 min
Overall bit rate : 11.0 Mb/s
Movie name : The Northman 2022 from seleZen
Encoded date : UTC 2022-05-15 19:04:54
Writing application : mkvmerge v59.0.0 ('Shining Star') 64-bit
Writing library : libebml v1.4.2 + libmatroska v1.6.4

Video
ID : 1
Format : AVC
Format/Info : Advanced Video Codec
Format profile : [email protected]
Format settings : CABAC / 4 Ref Frames
Format settings, CABAC : Yes
Format settings, Reference : 4 frames
Codec ID : V_MPEG4/ISO/AVC
Duration : 2 h 16 min
Bit rate mode : Constant
Bit rate : 8 607 kb/s
Nominal bit rate : 10 000 kb/s
Width : 1 920 pixels
Height : 960 pixels
Display aspect ratio : 2.000
Frame rate mode : Constant
Frame rate : 23.976 (24000/1001) FPS
Color space : YUV
Chroma subsampling : 4:2:0
Bit depth : 8 bits
Scan type : Progressive
Bits/(Pixel*Frame) : 0.195
Stream size : 8.23 GiB (78%)
Language : English
Default : Yes
Forced : No
Color range : Limited
Color primaries : BT.709
Transfer characteristics : BT.709
Matrix coefficients : BT.709

Audio #1
ID : 2
Format : AC-3
Format/Info : Audio Coding 3
Commercial name : Dolby Digital
Codec ID : A_AC3
Duration : 2 h 17 min
Bit rate mode : Constant
Bit rate : 448 kb/s
Channel(s) : 6 channels
Channel layout : L R C LFE Ls Rs
Sampling rate : 48.0 kHz
Frame rate : 31.250 FPS (1536 SPF)
Compression mode : Lossy
Stream size : 439 MiB (4%)
Title : MVO [HDRezka Studio]
Language : Russian
Service kind : Complete Main
Default : Yes
Forced : Yes

Audio #2
ID : 3
Format : AC-3
Format/Info : Audio Coding 3
Commercial name : Dolby Digital
Codec ID : A_AC3
Duration : 2 h 17 min
Bit rate mode : Constant
Bit rate : 448 kb/s
Channel(s) : 6 channels
Channel layout : L R C LFE Ls Rs
Sampling rate : 48.0 kHz
Frame rate : 31.250 FPS (1536 SPF)
Compression mode : Lossy
Stream size : 439 MiB (4%)
Title : MVO [Jaskier]
Language : Russian
Service kind : Complete Main
Default : No
Forced : No

Audio #3
ID : 4
Format : AC-3
Format/Info : Audio Coding 3
Commercial name : Dolby Digital
Codec ID : A_AC3
Duration : 2 h 17 min
Bit rate mode : Constant
Bit rate : 384 kb/s
Channel(s) : 6 channels
Channel layout : L R C LFE Ls Rs
Sampling rate : 48.0 kHz
Frame rate : 31.250 FPS (1536 SPF)
Compression mode : Lossy
Stream size : 377 MiB (3%)
Title : MVO [NewComers]
Language : Russian
Service kind : Complete Main
Default : No
Forced : No

Audio #4
ID : 5
Format : AC-3
Format/Info : Audio Coding 3
Commercial name : Dolby Digital
Codec ID : A_AC3
Duration : 2 h 17 min
Bit rate mode : Constant
Bit rate : 384 kb/s
Channel(s) : 6 channels
Channel layout : L R C LFE Ls Rs
Sampling rate : 48.0 kHz
Frame rate : 31.250 FPS (1536 SPF)
Compression mode : Lossy
Stream size : 377 MiB (3%)
Title : MVO [HDRezka Studio]
Language : Ukrainian
Service kind : Complete Main
Default : No
Forced : No

Audio #5
ID : 6
Format : E-AC-3 JOC
Format/Info : Enhanced AC-3 with Joint Object Coding
Commercial name : Dolby Digital Plus with Dolby Atmos
Codec ID : A_EAC3
Duration : 2 h 17 min
Bit rate mode : Constant
Bit rate : 768 kb/s
Channel(s) : 6 channels
Channel layout : L R C LFE Ls Rs
Sampling rate : 48.0 kHz
Frame rate : 31.250 FPS (1536 SPF)
Compression mode : Lossy
Stream size : 753 MiB (7%)
Title : Original
Language : English
Service kind : Complete Main
Default : No
Forced : No
Complexity index : 16
Number of dynamic objects : 15
Bed channel count : 1 channel
Bed channel configuration : LFE

Text #1
ID : 7
Format : UTF-8
Codec ID : S_TEXT/UTF8
Codec ID/Info : UTF-8 Plain Text
Duration : 2 h 7 min
Bit rate : 2 b/s
Count of elements : 43
Stream size : 1.99 KiB (0%)
Title : Forced [HDRezka Studio]
Language : Russian
Default : Yes
Forced : Yes

Text #2
ID : 8
Format : UTF-8
Codec ID : S_TEXT/UTF8
Codec ID/Info : UTF-8 Plain Text
Duration : 2 h 0 min
Bit rate : 0 b/s
Count of elements : 8
Stream size : 196 Bytes (0%)
Title : Forced [NewComers]
Language : Russian
Default : No
Forced : No

Text #3
ID : 9
Format : UTF-8
Codec ID : S_TEXT/UTF8
Codec ID/Info : UTF-8 Plain Text
Duration : 2 h 8 min
Bit rate : 52 b/s
Count of elements : 1019
Stream size : 49.2 KiB (0%)
Title : Full [Cool Story Blog]
Language : Russian
Default : No
Forced : No

Text #4
ID : 10
Format : UTF-8
Codec ID : S_TEXT/UTF8
Codec ID/Info : UTF-8 Plain Text
Duration : 2 h 2 min
Bit rate : 2 b/s
Count of elements : 39
Stream size : 1.97 KiB (0%)
Title : Forced [HDRezka Studio]
Language : Ukrainian
Default : No
Forced : No

Text #5
ID : 11
Format : UTF-8
Codec ID : S_TEXT/UTF8
Codec ID/Info : UTF-8 Plain Text
Duration : 1 h 39 min
Bit rate : 1 b/s
Count of elements : 33
Stream size : 1.10 KiB (0%)
Title : Forced
Language : English
Default : No
Forced : No

Text #6
ID : 12
Format : UTF-8
Codec ID : S_TEXT/UTF8
Codec ID/Info : UTF-8 Plain Text
Duration : 2 h 7 min
Bit rate : 26 b/s
Count of elements : 979
Stream size : 25.1 KiB (0%)
Title : Full
Language : English
Default : No
Forced : No

Text #7
ID : 13
Format : UTF-8
Codec ID : S_TEXT/UTF8
Codec ID/Info : UTF-8 Plain Text
Duration : 2 h 7 min
Bit rate : 42 b/s
Count of elements : 1605
Stream size : 39.8 KiB (0%)
Title : SDH
Language : English
Default : No
Forced : No

Menu
00:00:00.000 : Chapter 1
00:08:59.000 : Chapter 2
00:15:52.000 : Chapter 3
00:22:09.000 : Chapter 4
00:30:29.000 : Chapter 5
00:39:49.000 : Chapter 6
00:46:23.000 : Chapter 7
00:51:48.000 : Chapter 8
00:58:19.000 : Chapter 9
01:05:27.000 : Chapter 10
01:12:00.000 : Chapter 11
01:16:54.000 : Chapter 12
01:23:41.000 : Chapter 13
01:27:22.000 : Chapter 14
01:35:48.000 : Chapter 15
01:41:07.000 : Chapter 16
01:46:43.000 : Chapter 17
01:55:50.000 : Chapter 18
02:01:12.000 : Chapter 19
02:08:46.000 : Chapter 20

vidak.icu



% Раздел Тема Автор DL S | L
Фильмы 2022 [DVDrip, WEB-DLRip, HDrip] (DUB, MVO) [ 2.7 GB ] Варяг / The Northman [2022 история WEB-DLRip-AVC] MVO [NewComers] от ExKinoRay Lithuania Скачать
38 | 0
Ultra HD (UHD: 2K, 4K, 8K) — видео сверхвысокой чёткости [ 25.61 GB ] Варяг / The Northman [2022 история UHD WEB-DL-HEVC 2160p] 3xMVO [HDRezka Studio Jaskier NewComers] bober100 Скачать
14 | 2
Фильмы с украинским озвучиванием [ 7.75 GB ] Варяг / The Northman [2022 история WEBRip 1080p] [Ukr MVO] killermax2013 Скачать
1 | 0
T Фильмы (мультфильмы) cо спонсором показа (Новинки AVI/MKV) [ 8.02 GB ] Варяг / The Northman [2022 история WEB-DL 1080p] DUB [звук с TS] bober100 Скачать
2 | 0
Фильмы 2022 [DVDrip, WEB-DLRip, HDrip] (DUB, MVO) [ 3.07 GB ] Варяг / The Northman [2022 история WEB-DLRip-AVC] MVO [NewComers] bober100 Скачать
25 | 0


Последний раз редактировалось: bober100 (2022-05-15 19:51), всего редактировалось 5 раз(а)

28-11-2019 20:33  

Отключить всю рекламу на сайте

14-05-2022 11:08 Варяг Скачать торрент  

есть посмотревшие этот продукт..сразу скажу что странно видеть этого Амлета(ну почти что гАмлета)не негром(ну пардон - афро-викингом)ну а то что ведьма Ольга(а не Ганна или там Стефа)без вышиванки это недоработка..в общем кто смотрел-отпишитесь..vidak.icu



14-05-2022 12:04 Варяг Скачать торрент  

Wapentake666 писал(а):

есть посмотревшие этот продукт..сразу скажу что странно видеть этого Амлета(ну почти что гАмлета)не негром(ну пардон - афро-викингом)ну а то что ведьма Ольга(а не Ганна или там Стефа)без вышиванки это недоработка..в общем кто смотрел-отпишитесь..

Фильм ниже среднего. Даже звездный состав не спас фильм. На середине хотелось выключить и забыть. ИМХО: даже не скажу что фильм на 1 раз.vidak.icu



15-05-2022 04:10 Варяг Скачать торрент  

Wapentake666 писал(а):

есть посмотревшие этот продукт..сразу скажу что странно видеть этого Амлета(ну почти что гАмлета)не негром(ну пардон - афро-викингом)ну а то что ведьма Ольга(а не Ганна или там Стефа)без вышиванки это недоработка..в общем кто смотрел-отпишитесь..

Именно так, Амлет, также в разных вариантах звучит как Хамлет и Гамлет, имя скандинавское, а Гамлет был датчанином, что вас тут удивило? Ольга -русская и, да, она в начале фильма в вышиванке, собственно в вышиванках славяне и ходили. Может быть перед тем как демонстрировать свое невежество хотя бы попробуете ознакомиться с фильмом?
По факту, фильм жесткий, брутальный, виджно, что снимал автор "Ведьмы". Для любителей тематики, сюжет возможно и простоват и повествование не так динамично, как многие любят, ближе к авторскому кино, типа "Вальгаллы". Если понравился наш "Викинг" с рвотным слоу-мо и грибными потрахушками в грязной луже-этот фильм не зайдет.vidak.icu



15-05-2022 22:01 Варяг Скачать торрент  

соглашусь с bakerman фильм на любителяvidak.icu



16-05-2022 11:57 Варяг Скачать торрент  

Вроде как правильно пишется Омлет...vidak.icu



17-05-2022 03:54 Варяг Скачать торрент  

Ну, такое, хореография боев тут - это что то мб из 90.
Хотя я эту Корягу посмотрел за 1 раз, в отличии от последнего бэтмена, которого смотрел 4 дня, делая перерывы, так как скукатища та еще.vidak.icu



18-05-2022 13:47 Варяг Скачать торрент  

После сериала Викинги и духа, который там передали, это уже смотрится как второсорт. Хотя фильм...vidak.icu



18-05-2022 16:22 Варяг Скачать торрент  

Фигняvidak.icu



    Дорогой пользователь! Огромная просьба, поблагодарите релизера, оцените раздачу и оставьте свои комментарий, если Вы скачали Варяг через торрент бесплатно!
    Комментировать посты могут только пользователи прошедшие не сложную регистрацию
    Показать сообщения:    

    Варяг через торрент
    Скачать бесплатно Варяг
    Варяг скачать торрент
    Варяг смотреть онлайн
    Cкачать фильм Варяг бесплатно
    Варяг скачать торрент в хорошем качестве
    Варяг смотреть онлайн бесплатно в хорошем качестве


    Вы не можете начинать темы
    Вы не можете отвечать на сообщения
    Вы не можете редактировать свои сообщения
    Вы не можете удалять свои сообщения
    Вы не можете голосовать в опросах
    Вы не можете прикреплять файлы к сообщениям
    Вы можете скачивать файлы